Поиск Скрыть
 Торренты

(*^_^*) Скрыть

(*^_^*) Скрыть

Power Speed / 3D (2013) [ENG, BDrip, Half OverUnder / Вертикальная анаморфная стереопара]
>> Скачать торрент без регистрации <<

ТипВидео / Спорт в 3D
Хэш релиза36079949cdc79fb77961f6b47df5e752211f4810
Проверить
Этот релиз был проверен Lynxxx
Изображение для Power Speed / 3D (2013) [ENG, BDrip, Half OverUnder / Вертикальная анаморфная стереопара] (кликните для просмотра полного изображения)
image


Полное название: Power Speed / 3D (2013) [ENG, BDrip, Half OverUnder / Вертикальная анаморфная стереопара]
Тип: Спорт в 3D


Length..............: 1h 3mn
Video...............: 1920x1080 (X264 @ 23.976fps)
Bitrate.............: 19.8Mbps
Audio...............: AC3, 640kbps, 6 channels
Language............: English
Subtitles...........: N/A
Genre ..............: Action | Comedy

yk57vt81abmb8sgr2rk8dhq4p.jpg 3ysupbj17glpdbqford7xvyf6.jpg vidbcs42aohcy895jo9k5dzlg.jpg

v03jex5n17pj1gken3lxu1v6u.jpg
yu76f7xpalkocg4m7axboa41l.jpg rkbcfw21sw7oklpwv4z3xbyzd.jpg

MediaInfo
Format                           : Matroska
File size                        : 8.38 GiB
Duration                         : 1h 3mn

Overall bit rate                 : 18.9 Mbps
Movie name                       : [torrent3d.ru]
Encoded date                     : UTC 2014-02-25 00:48:40
Writing application              : mkvmerge v4.0.0 ('The Stars were mine') сборка от Jun  6 2010 16:18:42
Writing library                  : libebml v1.0.0 + libmatroska v1.0.0


Video
ID                               : 1
Format                           : AVC
Format/Info                      : Advanced Video Codec
Format profile                   : High@L4.1
Format settings, CABAC           : Yes
Format settings, ReFrames        : 4 frames
Muxing mode                      : Container profile=Unknown@4.1
Codec ID                         : V_MPEG4/ISO/AVC
Duration                         : 1h 3mn
Bit rate                         : 17.9 Mbps
Width                            : 1 920 pixels
Height                           : 1 080 pixels
Display aspect ratio             : 16:9
Frame rate                       : 23.976 fps
Color space                      : YUV
Chroma subsampling               : 4:2:0
Bit depth                        : 8 bits
Scan type                        : Progressive
Bits/(Pixel*Frame)               : 0.360
Stream size                      : 7.93 GiB (95%)
Writing library                  : x264 core 142 r2389 956c8d8
Encoding settings                : cabac=1 / ref=4 / deblock=1:-1:-1 / analyse=0x3:0x113 / me=umh / subme=9 / psy=1 / psy_rd=1.00:0.15 / mixed_ref=1 / me_range=16 / chroma_me=1 / trellis=1 / 8x8dct=1 / cqm=0 / deadzone=21,11 / fast_pskip=1 / chroma_qp_offset=-3 / threads=36 / lookahead_threads=3 / sliced_threads=0 / nr=0 / decimate=1 / interlaced=0 / bluray_compat=0 / constrained_intra=0 / bframes=6 / b_pyramid=2 / b_adapt=1 / b_bias=0 / direct=3 / weightb=1 / open_gop=0 / weightp=2 / keyint=250 / keyint_min=23 / scenecut=40 / intra_refresh=0 / rc_lookahead=40 / rc=crf / mbtree=1 / crf=18.0 / qcomp=0.60 / qpmin=10 / qpmax=69 / qpstep=4 / vbv_maxrate=40000 / vbv_bufsize=30000 / crf_max=0.0 / nal_hrd=none / filler=0 / ip_ratio=1.40 / aq=1:1.00


Audio
ID                               : 2
Format                           : AC-3
Format/Info                      : Audio Coding 3
Mode extension                   : CM (complete main)
Codec ID                         : A_AC3
Duration                         : 1h 3mn
Bit rate mode                    : Constant
Bit rate                         : 640 Kbps
Channel(s)                       : 6 channels
Channel positions                : Front: L C R, Side: L R, LFE
Sampling rate                    : 44.1 KHz
Stream size                      : 291 MiB (3%)


Menu
00:00:00.000                     : en:00:00:00.000
00:09:32.530                     : en:00:09:32.530
00:17:31.092                     : en:00:17:31.092
00:34:40.996                     : en:00:34:40.996
00:43:14.884                     : en:00:43:14.884
00:52:02.786                     : en:00:52:02.786


Размер: 8.38 GB

Данный релиз можно скачать с сайта Всё 3D Рунета - торрент-трекера 3D фильмов, мультфильмов, документальных передач в форматах стереопара, анаглиф, 3D Blu-Ray.


(=^_^=) Скрыть

Категории:

4K фильмы, UHD контент, 2160p скачать торрент

3D фильмы (анаглиф) 3D фильмы (Blu-Ray) 3D фильмы (стереопары)

Gothic Alternative Разное Отечественные фильмы

3D мультфильмы (анаглиф) 3D мультфильмы (Blu-Ray) 3D мультфильмы (стереопара)

Документальные Детектив/Криминал Мультфильмы Blu Ray Сериалы / Зарубежные

3D Документальное (анаглиф) 3D Документальное (Blu-Ray) 3D Документальное (стереопары)

Музыка FLAC Rock Pop

фильмы Blu Ray Ужасы (Мистика) Фантастика

Триллер Драма Боевик

Комедия фильмы зарубежные Приключения

Спорт в 3D Трейлеры, ролики 3D Музыкальные фильмы/Клипы 3D Игры

Гонки Стратегии RPG Аркады MMORPG

Квесты/Приключения Я ищу (Поиск предметов) Action/Shooter Видео для мобильных устройств (КПК, iPhone, iPad...) 60 fps


(*^_^*) Скрыть